<?xml version="1.0" encoding="UTF-8" standalone="no"?>
<!-- Created with Inkscape (http://www.inkscape.org/) -->

<svg
   width="29.633333mm"
   height="29.633326mm"
   viewBox="0 0 29.633333 29.633326"
   version="1.1"
   id="svg1"
   xml:space="preserve"
   xmlns="http://www.w3.org/2000/svg"
   xmlns:svg="http://www.w3.org/2000/svg"><defs
     id="defs1"><font
       id="FontID0"
       horiz-adv-x="673"
       font-variant="normal"
       style="fill-rule:nonzero"
       font-style="normal"
       font-weight="400"
       horiz-origin-x="0"
       horiz-origin-y="0"
       vert-origin-x="512"
       vert-origin-y="768"
       vert-adv-y="1024">
	<font-face
   font-family="Poppins"
   id="font-face1">
		<font-face-src>
			<font-face-name
   name="Poppins Regular" />
		</font-face-src>
	</font-face>
   <missing-glyph
   id="missing-glyph1"><path
     d="M0 0z"
     id="path1" /></missing-glyph>
   <glyph
   unicode="E"
   horiz-adv-x="513"
   d="M168.002 623.004l0 -233.007 253.993 0 0 -75.0072 -253.993 0 0 -239.983 284.001 0 0 -75.0072 -375.007 0 0 698.011 375.007 0 0 -75.0072 -284.001 0z"
   id="glyph1" />
   <glyph
   unicode="I"
   horiz-adv-x="246"
   d="M168.002 697.002l0 -697.002 -91.0061 0 0 697.002 91.0061 0z"
   id="glyph2" />
   <glyph
   unicode="a"
   horiz-adv-x="675"
   d="M43.0095 275.987c0,56.0104 11.3289,105.189 33.9867,147.506 22.6578,42.3465 53.8484,75.1802 93.514,98.501 39.6656,23.3497 83.8282,34.9957 132.488,34.9957 47.9965,0 89.68,-10.32 124.993,-30.9888 35.3416,-20.6688 61.6892,-46.6705 79.0141,-78.0052l0 100 91.9862 0 0 -547.997 -91.9862 0 0 101.989c-18.0167,-31.9977 -44.8256,-58.4895 -80.5131,-79.4754 -35.6587,-21.0147 -77.1692,-31.5076 -124.503,-31.5076 -48.6596,0 -92.6492,11.9919 -131.998,36.0046 -39.3197,23.9839 -70.3373,57.6535 -92.9951,100.98 -22.6578,43.3554 -33.9867,92.678 -33.9867,147.997zm463.995 -0.98011c0,41.3376 -8.33093,77.3133 -24.9928,107.985 -16.6907,30.6717 -39.1756,54.1655 -67.5123,70.5102 -28.3367,16.3448 -59.4984,24.5027 -93.514,24.5027 -33.9867,0 -64.9755,-8.01384 -92.9951,-24.0127 -27.9908,-15.9988 -50.3315,-39.3197 -66.9934,-69.9914 -16.6619,-30.6717 -24.9928,-66.6763 -24.9928,-108.014 0,-42.0006 8.33093,-78.4952 24.9928,-109.484 16.6619,-31.0176 39.0026,-54.6843 66.9934,-71.0003 28.0196,-16.3448 59.0084,-24.5027 92.9951,-24.5027 34.0156,0 65.1773,8.15797 93.514,24.5027 28.3367,16.3159 50.8216,39.9827 67.5123,71.0003 16.6619,30.9888 24.9928,67.1663 24.9928,108.504z"
   id="glyph3" />
   <glyph
   unicode="c"
   horiz-adv-x="607"
   d="M43.0095 275.007c0,56.6734 11.3289,106.169 33.9867,148.487 22.6578,42.3465 54.1655,75.1802 94.4941,98.501 40.3286,23.3497 86.5091,34.9957 138.513,34.9957 67.3393,0 122.831,-16.3159 166.503,-48.9767 43.6725,-32.6895 72.4993,-78.0052 86.4803,-136.005l-97.9821 0c-9.33987,33.3237 -27.5007,59.6714 -54.5114,78.9853 -26.9818,19.3428 -60.4785,28.9997 -100.49,28.9997 -52.0035,0 -94.004,-17.8149 -126.002,-53.5025 -31.9977,-35.6587 -47.9965,-86.1632 -47.9965,-151.485 0,-66.0133 15.9988,-117.008 47.9965,-153.012 31.9977,-36.0046 73.9983,-53.9925 126.002,-53.9925 40.0115,0 73.3353,9.33987 100,27.9908 26.6647,18.6797 44.9986,45.3445 55.0014,79.9942l97.9821 0c-14.644,-55.9816 -43.9896,-100.807 -87.9792,-134.477 -44.0184,-33.6696 -99.0199,-50.5045 -165.004,-50.5045 -52.0035,0 -98.1839,11.6748 -138.513,34.9957 -40.3286,23.3208 -71.8363,56.3275 -94.4941,98.9911 -22.6578,42.6636 -33.9867,92.678 -33.9867,150.014z"
   id="glyph4" />
   <glyph
   unicode="e"
   horiz-adv-x="620"
   d="M576.996 295.013c0,-17.3537 -1.00894,-35.6875 -2.99798,-55.0014l-437.994 0c3.31508,-54.0213 21.8219,-96.166 55.4915,-126.521 33.6696,-30.3257 74.5172,-45.4886 122.514,-45.4886 39.3197,0 72.1534,9.16691 98.501,27.5007 26.3188,18.3338 44.8256,42.8366 55.4915,73.5082l98.011 0c-14.6728,-52.6665 -44.0184,-95.503 -88.0081,-128.51 -44.0184,-33.0066 -98.674,-49.4955 -163.995,-49.4955 -52.0035,0 -98.501,11.6748 -139.521,34.9957 -40.9916,23.3208 -73.1623,56.5004 -96.4831,99.5099 -23.3497,42.9807 -34.9957,92.8221 -34.9957,149.496 0,56.6734 11.3289,106.313 33.9867,149.005 22.6578,42.6636 54.5114,75.4973 95.503,98.501 40.9916,22.9749 88.181,34.4768 141.511,34.4768 52.0035,0 97.9821,-11.3289 137.994,-33.9867 39.9827,-22.6578 70.8273,-53.8484 92.505,-93.514 21.6489,-39.6656 32.4877,-84.4912 32.4877,-134.477zm-94.004 18.9968c0,34.6498 -7.66792,64.4854 -23.0037,89.4782 -15.3358,25.0216 -36.1487,44.0184 -62.4964,57.0193 -26.3188,13.0009 -55.4915,19.4869 -87.4892,19.4869 -46.0075,0 -85.183,-14.6728 -117.498,-43.9896 -32.3436,-29.3456 -50.8504,-69.9914 -55.4915,-121.995l345.979 0z"
   id="glyph5" />
   <glyph
   unicode="g"
   horiz-adv-x="675"
   d="M302.998 556.99c47.3335,0 88.844,-10.32 124.503,-30.9888 35.6587,-20.6688 62.1793,-46.6705 79.5042,-78.0052l0 100 91.9862 0 0 -559.988c0,-50.0144 -10.6659,-94.4941 -31.9977,-133.497 -21.3318,-39.0026 -51.8305,-69.5013 -91.4961,-91.5249 -39.6656,-21.9948 -85.8172,-32.9778 -138.484,-32.9778 -72.0092,0 -132.027,16.979 -180.023,50.9945 -47.9965,33.9867 -76.3332,80.3402 -84.9813,139.003l89.9971 0c10.0029,-33.3526 30.6717,-60.1614 62.0063,-80.5131 31.3347,-20.3229 68.9824,-30.4987 113.001,-30.4987 49.9856,0 90.8331,15.6818 122.485,47.0164 31.6806,31.3347 47.5065,75.3243 47.5065,131.998l0 114.99c-18.0167,-31.9977 -44.6815,-58.6624 -79.9942,-79.9942 -35.3416,-21.3318 -76.6792,-31.9977 -124.013,-31.9977 -48.6596,0 -92.8221,11.9919 -132.488,36.0046 -39.6656,23.9839 -70.8562,57.6535 -93.514,100.98 -22.6578,43.3554 -33.9867,92.678 -33.9867,147.997 0,56.0104 11.3289,105.189 33.9867,147.506 22.6578,42.3465 53.8484,75.1802 93.514,98.501 39.6656,23.3497 83.8282,34.9957 132.488,34.9957zm204.007 -281.983c0,41.3376 -8.33093,77.3133 -24.9928,107.985 -16.6907,30.6717 -39.1756,54.1655 -67.5123,70.5102 -28.3367,16.3448 -59.4984,24.5027 -93.514,24.5027 -33.9867,0 -64.9755,-8.01384 -92.9951,-24.0127 -27.9908,-15.9988 -50.3315,-39.3197 -66.9934,-69.9914 -16.6619,-30.6717 -24.9928,-66.6763 -24.9928,-108.014 0,-42.0006 8.33093,-78.4952 24.9928,-109.484 16.6619,-31.0176 39.0026,-54.6843 66.9934,-71.0003 28.0196,-16.3448 59.0084,-24.5027 92.9951,-24.5027 34.0156,0 65.1773,8.15797 93.514,24.5027 28.3367,16.3159 50.8216,39.9827 67.5123,71.0003 16.6619,30.9888 24.9928,67.1663 24.9928,108.504z"
   id="glyph6" />
   <glyph
   unicode="i"
   horiz-adv-x="246"
   d="M124.013 637.014c-17.3537,0 -32.0265,5.99596 -44.0184,17.9879 -11.9919,11.9919 -17.9879,26.6647 -17.9879,43.9896 0,17.3537 5.99596,31.9977 17.9879,44.0184 11.9919,11.9919 26.6647,17.9879 44.0184,17.9879 16.6619,0 30.8158,-5.99596 42.4906,-17.9879 11.6748,-12.0208 17.4978,-26.6647 17.4978,-44.0184 0,-17.3249 -5.823,-31.9977 -17.4978,-43.9896 -11.6748,-11.9919 -25.8288,-17.9879 -42.4906,-17.9879zm43.9896 -89.017l0 -547.997 -91.0061 0 0 547.997 91.0061 0z"
   id="glyph7" />
   <glyph
   unicode="l"
   horiz-adv-x="246"
   d="M168.002 740.012l0 -740.012 -91.0061 0 0 740.012 91.0061 0z"
   id="glyph8" />
   <glyph
   unicode="n"
   horiz-adv-x="640"
   d="M343.99 557.999c66.6763,0 120.669,-20.1787 162.006,-60.5074 41.3376,-40.3286 62.0063,-98.501 62.0063,-174.488l0 -323.004 -89.9971 0 0 310.003c0,54.6555 -13.6639,96.4831 -40.9916,125.483 -27.3566,29.0285 -64.6872,43.5284 -112.021,43.5284 -47.9965,0 -86.1632,-15.0187 -114.5,-45.0274 -28.3367,-29.9798 -42.4906,-73.6523 -42.4906,-130.989l0 -302.998 -91.0061 0 0 547.997 91.0061 0 0 -78.0052c17.9879,28.0196 42.4906,49.6685 73.5082,65.0043 30.9888,15.3358 65.1485,23.0037 102.479,23.0037z"
   id="glyph9" />
   <glyph
   unicode="o"
   horiz-adv-x="640"
   d="M315.999 -8.99395c-51.3404,0 -97.838,11.6748 -139.493,34.9957 -41.6835,23.3208 -74.3442,56.5004 -98.011,99.5099 -23.6668,42.9807 -35.4857,92.8221 -35.4857,149.496 0,55.9816 12.1649,105.506 36.4947,148.487 24.3298,43.0095 57.5094,76.0161 99.5099,99.0199 41.9717,22.9749 88.9882,34.4768 140.992,34.4768 52.0035,0 98.9911,-11.5019 140.992,-34.4768 42.0006,-23.0037 75.1802,-55.8374 99.5099,-98.501 24.3298,-42.6924 36.4947,-92.3321 36.4947,-149.005 0,-56.6734 -12.5108,-106.515 -37.5036,-149.496 -24.9928,-43.0095 -58.8354,-76.1891 -101.499,-99.5099 -42.6636,-23.3208 -89.9971,-34.9957 -142.001,-34.9957zm0 79.9942c32.6607,0 63.3324,7.66792 92.015,23.0037 28.6538,15.3358 51.8305,38.3396 69.4725,68.9824 17.6708,30.6717 26.5206,68.0023 26.5206,112.021 0,43.9896 -8.67685,81.3203 -26.0017,111.992 -17.3249,30.6717 -40.0115,53.5025 -68.0023,68.4924 -27.9908,15.0187 -58.3453,22.5137 -91.0061,22.5137 -33.3237,0 -63.8224,-7.49496 -91.4961,-22.5137 -27.6737,-14.9899 -49.8415,-37.8207 -66.5033,-68.4924 -16.6619,-30.6717 -24.9928,-68.0023 -24.9928,-111.992 0,-44.6815 8.15797,-82.3292 24.5027,-113.001 16.3159,-30.6717 38.1666,-53.5025 65.4944,-68.4924 27.3278,-15.0187 57.3364,-22.5137 89.9971,-22.5137z"
   id="glyph10" />
   <glyph
   unicode="r"
   horiz-adv-x="372"
   d="M168.002 459.008c15.9988,31.3347 38.8296,55.6645 68.4924,72.9893 29.6627,17.3249 65.8403,26.0017 108.504,26.0017l0 -94.004 -24.0127 0c-101.989,0 -152.984,-55.3185 -152.984,-165.984l0 -298.011 -91.0061 0 0 547.997 91.0061 0 0 -88.9882z"
   id="glyph11" />
   <glyph
   unicode="s"
   horiz-adv-x="521"
   d="M271 -8.99395c-42.0006,0 -79.6771,7.14903 -113.001,21.5048 -33.3237,14.3269 -59.6714,34.3327 -78.9853,59.9885 -19.3428,25.6558 -30.0086,55.1744 -32.0265,88.4981l94.004 0c2.68089,-27.3278 15.5088,-49.6685 38.5125,-66.9934 23.0037,-17.3249 53.1565,-26.0017 90.4872,-26.0017 34.6786,0 62.0063,7.66792 82.0121,23.0037 20.0058,15.3358 30.0086,34.6498 30.0086,57.9994 0,23.9839 -10.6659,41.8276 -31.9977,53.5025 -21.3606,11.646 -54.3384,23.1479 -99.0199,34.5056 -40.6745,10.6659 -73.8253,21.4759 -99.4811,32.4877 -25.6846,11.0118 -47.6794,27.3278 -66.0133,49.0055 -18.3338,21.6489 -27.5007,50.1585 -27.5007,85.5001 0,27.9908 8.33093,53.6466 24.9928,76.9963 16.6619,23.3208 40.3286,41.8276 71.0003,55.4915 30.6717,13.6639 65.6673,20.4958 105.016,20.4958 60.6515,0 109.657,-15.3358 146.988,-45.9787 37.3306,-30.6717 57.3364,-72.6722 60.0173,-126.002l-91.0061 0c-2.01787,28.6538 -13.5197,51.6575 -34.5056,68.9824 -21.0147,17.3537 -49.1784,26.0017 -84.4912,26.0017 -32.6895,0 -58.6913,-7.0049 -78.0052,-20.9859 -19.3428,-14.0098 -28.9997,-32.3436 -28.9997,-55.0014 0,-18.0167 5.823,-32.8337 17.4978,-44.5085 11.6748,-11.6748 26.3188,-20.9859 43.9896,-27.9908 17.6708,-7.0049 42.1735,-14.8458 73.5082,-23.4938 39.3197,-10.6947 71.3462,-21.1877 95.9931,-31.5076 24.6757,-10.3488 45.8345,-25.8288 63.5053,-46.4975 17.6708,-20.6688 26.8377,-47.6794 27.5007,-81.0032 0,-30.0086 -8.33093,-57.0193 -24.9928,-81.0032 -16.6619,-24.0127 -40.1845,-42.8366 -70.5102,-56.5004 -30.3257,-13.6639 -65.1773,-20.4958 -104.497,-20.4958z"
   id="glyph12" />
   <glyph
   unicode="t"
   horiz-adv-x="363"
   d="M188.008 472.989l0 -322.975c0,-26.6936 5.65004,-45.5174 16.979,-56.5004 11.3577,-11.0118 31.0176,-16.5177 59.0084,-16.5177l66.9934 0 0 -76.9963 -81.9833 0c-50.6774,0 -88.6711,11.6748 -114.01,34.9957 -25.3387,23.3497 -37.9937,61.6604 -37.9937,115.019l0 322.975 -71.0003 0 0 75.0072 71.0003 0 0 137.994 91.0061 0 0 -137.994 142.981 0 0 -75.0072 -142.981 0z"
   id="glyph13" />
  </font><style
       type="text/css"
       id="style13">
   <![CDATA[
    @font-face { font-family:"Poppins";font-variant:normal;font-style:normal;font-weight:normal;src:url("#FontID0") format(svg)}
    .fil3 {fill:#FEFEFE}
    .fil1 {fill:#6A52EE;fill-rule:nonzero}
    .fil2 {fill:#FFC816;fill-rule:nonzero}
    .fil0 {fill:white;fill-rule:nonzero}
    .fnt0 {font-weight:normal;font-size:115.1px;font-family:'Poppins'}
   ]]>
  </style><font
       id="FontID0-3"
       horiz-adv-x="673"
       font-variant="normal"
       style="fill-rule:nonzero"
       font-style="normal"
       font-weight="400"
       horiz-origin-x="0"
       horiz-origin-y="0"
       vert-origin-x="512"
       vert-origin-y="768"
       vert-adv-y="1024">
	<font-face
   font-family="Poppins"
   id="font-face1-6">
		<font-face-src>
			<font-face-name
   name="Poppins Regular" />
		</font-face-src>
	</font-face>
   <missing-glyph
   id="missing-glyph1-7"><path
     d="M0 0z"
     id="path1-5" /></missing-glyph>
   <glyph
   unicode="E"
   horiz-adv-x="513"
   d="M168.002 623.004l0 -233.007 253.993 0 0 -75.0072 -253.993 0 0 -239.983 284.001 0 0 -75.0072 -375.007 0 0 698.011 375.007 0 0 -75.0072 -284.001 0z"
   id="glyph1-3" />
   <glyph
   unicode="I"
   horiz-adv-x="246"
   d="M168.002 697.002l0 -697.002 -91.0061 0 0 697.002 91.0061 0z"
   id="glyph2-5" />
   <glyph
   unicode="a"
   horiz-adv-x="675"
   d="M43.0095 275.987c0,56.0104 11.3289,105.189 33.9867,147.506 22.6578,42.3465 53.8484,75.1802 93.514,98.501 39.6656,23.3497 83.8282,34.9957 132.488,34.9957 47.9965,0 89.68,-10.32 124.993,-30.9888 35.3416,-20.6688 61.6892,-46.6705 79.0141,-78.0052l0 100 91.9862 0 0 -547.997 -91.9862 0 0 101.989c-18.0167,-31.9977 -44.8256,-58.4895 -80.5131,-79.4754 -35.6587,-21.0147 -77.1692,-31.5076 -124.503,-31.5076 -48.6596,0 -92.6492,11.9919 -131.998,36.0046 -39.3197,23.9839 -70.3373,57.6535 -92.9951,100.98 -22.6578,43.3554 -33.9867,92.678 -33.9867,147.997zm463.995 -0.98011c0,41.3376 -8.33093,77.3133 -24.9928,107.985 -16.6907,30.6717 -39.1756,54.1655 -67.5123,70.5102 -28.3367,16.3448 -59.4984,24.5027 -93.514,24.5027 -33.9867,0 -64.9755,-8.01384 -92.9951,-24.0127 -27.9908,-15.9988 -50.3315,-39.3197 -66.9934,-69.9914 -16.6619,-30.6717 -24.9928,-66.6763 -24.9928,-108.014 0,-42.0006 8.33093,-78.4952 24.9928,-109.484 16.6619,-31.0176 39.0026,-54.6843 66.9934,-71.0003 28.0196,-16.3448 59.0084,-24.5027 92.9951,-24.5027 34.0156,0 65.1773,8.15797 93.514,24.5027 28.3367,16.3159 50.8216,39.9827 67.5123,71.0003 16.6619,30.9888 24.9928,67.1663 24.9928,108.504z"
   id="glyph3-6" />
   <glyph
   unicode="c"
   horiz-adv-x="607"
   d="M43.0095 275.007c0,56.6734 11.3289,106.169 33.9867,148.487 22.6578,42.3465 54.1655,75.1802 94.4941,98.501 40.3286,23.3497 86.5091,34.9957 138.513,34.9957 67.3393,0 122.831,-16.3159 166.503,-48.9767 43.6725,-32.6895 72.4993,-78.0052 86.4803,-136.005l-97.9821 0c-9.33987,33.3237 -27.5007,59.6714 -54.5114,78.9853 -26.9818,19.3428 -60.4785,28.9997 -100.49,28.9997 -52.0035,0 -94.004,-17.8149 -126.002,-53.5025 -31.9977,-35.6587 -47.9965,-86.1632 -47.9965,-151.485 0,-66.0133 15.9988,-117.008 47.9965,-153.012 31.9977,-36.0046 73.9983,-53.9925 126.002,-53.9925 40.0115,0 73.3353,9.33987 100,27.9908 26.6647,18.6797 44.9986,45.3445 55.0014,79.9942l97.9821 0c-14.644,-55.9816 -43.9896,-100.807 -87.9792,-134.477 -44.0184,-33.6696 -99.0199,-50.5045 -165.004,-50.5045 -52.0035,0 -98.1839,11.6748 -138.513,34.9957 -40.3286,23.3208 -71.8363,56.3275 -94.4941,98.9911 -22.6578,42.6636 -33.9867,92.678 -33.9867,150.014z"
   id="glyph4-2" />
   <glyph
   unicode="e"
   horiz-adv-x="620"
   d="M576.996 295.013c0,-17.3537 -1.00894,-35.6875 -2.99798,-55.0014l-437.994 0c3.31508,-54.0213 21.8219,-96.166 55.4915,-126.521 33.6696,-30.3257 74.5172,-45.4886 122.514,-45.4886 39.3197,0 72.1534,9.16691 98.501,27.5007 26.3188,18.3338 44.8256,42.8366 55.4915,73.5082l98.011 0c-14.6728,-52.6665 -44.0184,-95.503 -88.0081,-128.51 -44.0184,-33.0066 -98.674,-49.4955 -163.995,-49.4955 -52.0035,0 -98.501,11.6748 -139.521,34.9957 -40.9916,23.3208 -73.1623,56.5004 -96.4831,99.5099 -23.3497,42.9807 -34.9957,92.8221 -34.9957,149.496 0,56.6734 11.3289,106.313 33.9867,149.005 22.6578,42.6636 54.5114,75.4973 95.503,98.501 40.9916,22.9749 88.181,34.4768 141.511,34.4768 52.0035,0 97.9821,-11.3289 137.994,-33.9867 39.9827,-22.6578 70.8273,-53.8484 92.505,-93.514 21.6489,-39.6656 32.4877,-84.4912 32.4877,-134.477zm-94.004 18.9968c0,34.6498 -7.66792,64.4854 -23.0037,89.4782 -15.3358,25.0216 -36.1487,44.0184 -62.4964,57.0193 -26.3188,13.0009 -55.4915,19.4869 -87.4892,19.4869 -46.0075,0 -85.183,-14.6728 -117.498,-43.9896 -32.3436,-29.3456 -50.8504,-69.9914 -55.4915,-121.995l345.979 0z"
   id="glyph5-9" />
   <glyph
   unicode="g"
   horiz-adv-x="675"
   d="M302.998 556.99c47.3335,0 88.844,-10.32 124.503,-30.9888 35.6587,-20.6688 62.1793,-46.6705 79.5042,-78.0052l0 100 91.9862 0 0 -559.988c0,-50.0144 -10.6659,-94.4941 -31.9977,-133.497 -21.3318,-39.0026 -51.8305,-69.5013 -91.4961,-91.5249 -39.6656,-21.9948 -85.8172,-32.9778 -138.484,-32.9778 -72.0092,0 -132.027,16.979 -180.023,50.9945 -47.9965,33.9867 -76.3332,80.3402 -84.9813,139.003l89.9971 0c10.0029,-33.3526 30.6717,-60.1614 62.0063,-80.5131 31.3347,-20.3229 68.9824,-30.4987 113.001,-30.4987 49.9856,0 90.8331,15.6818 122.485,47.0164 31.6806,31.3347 47.5065,75.3243 47.5065,131.998l0 114.99c-18.0167,-31.9977 -44.6815,-58.6624 -79.9942,-79.9942 -35.3416,-21.3318 -76.6792,-31.9977 -124.013,-31.9977 -48.6596,0 -92.8221,11.9919 -132.488,36.0046 -39.6656,23.9839 -70.8562,57.6535 -93.514,100.98 -22.6578,43.3554 -33.9867,92.678 -33.9867,147.997 0,56.0104 11.3289,105.189 33.9867,147.506 22.6578,42.3465 53.8484,75.1802 93.514,98.501 39.6656,23.3497 83.8282,34.9957 132.488,34.9957zm204.007 -281.983c0,41.3376 -8.33093,77.3133 -24.9928,107.985 -16.6907,30.6717 -39.1756,54.1655 -67.5123,70.5102 -28.3367,16.3448 -59.4984,24.5027 -93.514,24.5027 -33.9867,0 -64.9755,-8.01384 -92.9951,-24.0127 -27.9908,-15.9988 -50.3315,-39.3197 -66.9934,-69.9914 -16.6619,-30.6717 -24.9928,-66.6763 -24.9928,-108.014 0,-42.0006 8.33093,-78.4952 24.9928,-109.484 16.6619,-31.0176 39.0026,-54.6843 66.9934,-71.0003 28.0196,-16.3448 59.0084,-24.5027 92.9951,-24.5027 34.0156,0 65.1773,8.15797 93.514,24.5027 28.3367,16.3159 50.8216,39.9827 67.5123,71.0003 16.6619,30.9888 24.9928,67.1663 24.9928,108.504z"
   id="glyph6-1" />
   <glyph
   unicode="i"
   horiz-adv-x="246"
   d="M124.013 637.014c-17.3537,0 -32.0265,5.99596 -44.0184,17.9879 -11.9919,11.9919 -17.9879,26.6647 -17.9879,43.9896 0,17.3537 5.99596,31.9977 17.9879,44.0184 11.9919,11.9919 26.6647,17.9879 44.0184,17.9879 16.6619,0 30.8158,-5.99596 42.4906,-17.9879 11.6748,-12.0208 17.4978,-26.6647 17.4978,-44.0184 0,-17.3249 -5.823,-31.9977 -17.4978,-43.9896 -11.6748,-11.9919 -25.8288,-17.9879 -42.4906,-17.9879zm43.9896 -89.017l0 -547.997 -91.0061 0 0 547.997 91.0061 0z"
   id="glyph7-2" />
   <glyph
   unicode="l"
   horiz-adv-x="246"
   d="M168.002 740.012l0 -740.012 -91.0061 0 0 740.012 91.0061 0z"
   id="glyph8-7" />
   <glyph
   unicode="n"
   horiz-adv-x="640"
   d="M343.99 557.999c66.6763,0 120.669,-20.1787 162.006,-60.5074 41.3376,-40.3286 62.0063,-98.501 62.0063,-174.488l0 -323.004 -89.9971 0 0 310.003c0,54.6555 -13.6639,96.4831 -40.9916,125.483 -27.3566,29.0285 -64.6872,43.5284 -112.021,43.5284 -47.9965,0 -86.1632,-15.0187 -114.5,-45.0274 -28.3367,-29.9798 -42.4906,-73.6523 -42.4906,-130.989l0 -302.998 -91.0061 0 0 547.997 91.0061 0 0 -78.0052c17.9879,28.0196 42.4906,49.6685 73.5082,65.0043 30.9888,15.3358 65.1485,23.0037 102.479,23.0037z"
   id="glyph9-0" />
   <glyph
   unicode="o"
   horiz-adv-x="640"
   d="M315.999 -8.99395c-51.3404,0 -97.838,11.6748 -139.493,34.9957 -41.6835,23.3208 -74.3442,56.5004 -98.011,99.5099 -23.6668,42.9807 -35.4857,92.8221 -35.4857,149.496 0,55.9816 12.1649,105.506 36.4947,148.487 24.3298,43.0095 57.5094,76.0161 99.5099,99.0199 41.9717,22.9749 88.9882,34.4768 140.992,34.4768 52.0035,0 98.9911,-11.5019 140.992,-34.4768 42.0006,-23.0037 75.1802,-55.8374 99.5099,-98.501 24.3298,-42.6924 36.4947,-92.3321 36.4947,-149.005 0,-56.6734 -12.5108,-106.515 -37.5036,-149.496 -24.9928,-43.0095 -58.8354,-76.1891 -101.499,-99.5099 -42.6636,-23.3208 -89.9971,-34.9957 -142.001,-34.9957zm0 79.9942c32.6607,0 63.3324,7.66792 92.015,23.0037 28.6538,15.3358 51.8305,38.3396 69.4725,68.9824 17.6708,30.6717 26.5206,68.0023 26.5206,112.021 0,43.9896 -8.67685,81.3203 -26.0017,111.992 -17.3249,30.6717 -40.0115,53.5025 -68.0023,68.4924 -27.9908,15.0187 -58.3453,22.5137 -91.0061,22.5137 -33.3237,0 -63.8224,-7.49496 -91.4961,-22.5137 -27.6737,-14.9899 -49.8415,-37.8207 -66.5033,-68.4924 -16.6619,-30.6717 -24.9928,-68.0023 -24.9928,-111.992 0,-44.6815 8.15797,-82.3292 24.5027,-113.001 16.3159,-30.6717 38.1666,-53.5025 65.4944,-68.4924 27.3278,-15.0187 57.3364,-22.5137 89.9971,-22.5137z"
   id="glyph10-9" />
   <glyph
   unicode="r"
   horiz-adv-x="372"
   d="M168.002 459.008c15.9988,31.3347 38.8296,55.6645 68.4924,72.9893 29.6627,17.3249 65.8403,26.0017 108.504,26.0017l0 -94.004 -24.0127 0c-101.989,0 -152.984,-55.3185 -152.984,-165.984l0 -298.011 -91.0061 0 0 547.997 91.0061 0 0 -88.9882z"
   id="glyph11-3" />
   <glyph
   unicode="s"
   horiz-adv-x="521"
   d="M271 -8.99395c-42.0006,0 -79.6771,7.14903 -113.001,21.5048 -33.3237,14.3269 -59.6714,34.3327 -78.9853,59.9885 -19.3428,25.6558 -30.0086,55.1744 -32.0265,88.4981l94.004 0c2.68089,-27.3278 15.5088,-49.6685 38.5125,-66.9934 23.0037,-17.3249 53.1565,-26.0017 90.4872,-26.0017 34.6786,0 62.0063,7.66792 82.0121,23.0037 20.0058,15.3358 30.0086,34.6498 30.0086,57.9994 0,23.9839 -10.6659,41.8276 -31.9977,53.5025 -21.3606,11.646 -54.3384,23.1479 -99.0199,34.5056 -40.6745,10.6659 -73.8253,21.4759 -99.4811,32.4877 -25.6846,11.0118 -47.6794,27.3278 -66.0133,49.0055 -18.3338,21.6489 -27.5007,50.1585 -27.5007,85.5001 0,27.9908 8.33093,53.6466 24.9928,76.9963 16.6619,23.3208 40.3286,41.8276 71.0003,55.4915 30.6717,13.6639 65.6673,20.4958 105.016,20.4958 60.6515,0 109.657,-15.3358 146.988,-45.9787 37.3306,-30.6717 57.3364,-72.6722 60.0173,-126.002l-91.0061 0c-2.01787,28.6538 -13.5197,51.6575 -34.5056,68.9824 -21.0147,17.3537 -49.1784,26.0017 -84.4912,26.0017 -32.6895,0 -58.6913,-7.0049 -78.0052,-20.9859 -19.3428,-14.0098 -28.9997,-32.3436 -28.9997,-55.0014 0,-18.0167 5.823,-32.8337 17.4978,-44.5085 11.6748,-11.6748 26.3188,-20.9859 43.9896,-27.9908 17.6708,-7.0049 42.1735,-14.8458 73.5082,-23.4938 39.3197,-10.6947 71.3462,-21.1877 95.9931,-31.5076 24.6757,-10.3488 45.8345,-25.8288 63.5053,-46.4975 17.6708,-20.6688 26.8377,-47.6794 27.5007,-81.0032 0,-30.0086 -8.33093,-57.0193 -24.9928,-81.0032 -16.6619,-24.0127 -40.1845,-42.8366 -70.5102,-56.5004 -30.3257,-13.6639 -65.1773,-20.4958 -104.497,-20.4958z"
   id="glyph12-6" />
   <glyph
   unicode="t"
   horiz-adv-x="363"
   d="M188.008 472.989l0 -322.975c0,-26.6936 5.65004,-45.5174 16.979,-56.5004 11.3577,-11.0118 31.0176,-16.5177 59.0084,-16.5177l66.9934 0 0 -76.9963 -81.9833 0c-50.6774,0 -88.6711,11.6748 -114.01,34.9957 -25.3387,23.3497 -37.9937,61.6604 -37.9937,115.019l0 322.975 -71.0003 0 0 75.0072 71.0003 0 0 137.994 91.0061 0 0 -137.994 142.981 0 0 -75.0072 -142.981 0z"
   id="glyph13-0" />
  </font>
</defs>
</svg>
